<?xml version="1.0" standalone="no"?>
<!DOCTYPE svg PUBLIC "-//W3C//DTD SVG 1.1//EN" "http://www.w3.org/Graphics/SVG/1.1/DTD/svg11.dtd" >
<svg xmlns="http://www.w3.org/2000/svg" xmlns:xlink="http://www.w3.org/1999/xlink" version="1.1">
<metadata></metadata>
<defs>
<font id="wisdom_scriptregular" horiz-adv-x="1005" >
<font-face units-per-em="2048" ascent="1536" descent="-512" />
<missing-glyph horiz-adv-x="581" />
<glyph horiz-adv-x="0" />
<glyph horiz-adv-x="682" />
<glyph unicode=" "  horiz-adv-x="581" />
<glyph unicode="&#x09;" horiz-adv-x="581" />
<glyph unicode="&#xa0;" horiz-adv-x="581" />
<glyph unicode="!" horiz-adv-x="661" d="M29 102q0 53 35.5 89t87.5 36t88 -36t36 -89q0 -52 -35.5 -87t-88.5 -35t-88 35t-35 87zM162 311l669 1164h213l-667 -1164h-215z" />
<glyph unicode="&#x22;" horiz-adv-x="724" d="M205 1108l4 82h12q37 0 76.5 20.5t58.5 49.5q-46 8 -74 35.5t-28 66.5q0 54 32.5 83.5t75.5 29.5q48 0 84.5 -31t36.5 -84q0 -105 -84.5 -178.5t-179.5 -73.5h-14zM512 1108l4 82h12q37 0 77 20.5t59 49.5q-46 8 -74.5 35.5t-28.5 66.5q0 54 33 83.5t76 29.5 q48 0 84.5 -31t36.5 -84q0 -70 -41.5 -129.5t-102 -91t-121.5 -31.5h-14z" />
<glyph unicode="#" horiz-adv-x="1538" d="M80 276l82 144h287l118 205h-284l82 143h284l148 256h192l-147 -256h258l147 256h193l-148 -256h277l-82 -143h-277l-116 -205h272l-82 -144h-272l-158 -276h-195l158 276h-256l-158 -276h-194l158 276h-287zM643 420h256l119 205h-258z" />
<glyph unicode="$" horiz-adv-x="870" d="M24.5 186.5q-30.5 102.5 20.5 225.5h178q-26 -42 -31.5 -92t8 -91.5t48.5 -69.5t84 -28q47 0 90 43t43 119q0 27 -10 58t-20 51t-32.5 60.5t-31.5 57.5q-62 115 -62 211q0 82 27 147t71.5 104.5t98.5 60t112 20.5q22 0 72 -8l121 211h160l-154 -269q101 -80 101 -202 q0 -80 -41 -166h-179q47 81 47 149q0 59 -34 95t-80 36q-47 0 -90 -42.5t-43 -118.5q0 -27 10 -58.5t19.5 -51t32.5 -61t32 -57.5q61 -113 61 -211q0 -82 -27 -147t-71.5 -104.5t-98.5 -60t-112 -20.5q-14 0 -59 5l-101 -179h-159l127 224q-97 57 -127.5 159.5z" />
<glyph unicode="%" horiz-adv-x="1177" d="M-94 0h215l1147 1024h-213zM319 868q0 74 51 125t124 51q74 0 125 -51t51 -125q0 -73 -51 -123.5t-125 -50.5t-124.5 50.5t-50.5 123.5zM438 868q0 -23 16.5 -39t39.5 -16t39 16t16 39t-16 39.5t-39 16.5t-39.5 -16.5t-16.5 -39.5zM524 152q0 74 50.5 125t123.5 51 q74 0 125 -51t51 -125q0 -73 -51 -124t-125 -51q-73 0 -123.5 50.5t-50.5 124.5zM643 152q0 -23 16 -39.5t39 -16.5t39.5 16.5t16.5 39.5t-16.5 39t-39.5 16t-39 -16t-16 -39z" />
<glyph unicode="&#x26;" horiz-adv-x="800" d="M-104 -197l112 199q-59 33 -88 91t-18 147.5t71 193.5q68 120 139 177t158 73q-39 46 -37 123t52 164q55 96 118.5 149.5t122.5 70.5t142 19l96 166h160l-111 -194q85 -46 109.5 -142.5t-29.5 -210.5h-209l18 31q62 107 32 174q-23 49 -81 43q-77 -8 -150 -109 q-13 -19 -26 -40l-24 -43q-36 -62 -28 -104.5t38.5 -64.5t71.5 -22l-58 -98q-188 0 -284 -162l-72 -123q-63 -110 -18 -163q33 -40 101 -25q79 19 128 97q3 4 6 9l41 72l211 2l-8 -16l-23 -41q-78 -134 -188.5 -204t-220.5 -73l-95 -166h-159z" />
<glyph unicode="'" horiz-adv-x="358" d="M268 1098l4 82h13q37 0 76.5 20t58.5 49q-46 8 -74.5 36t-28.5 67q0 54 33 83t76 29q48 0 84.5 -31t36.5 -83q0 -105 -84.5 -178.5t-179.5 -73.5h-15z" />
<glyph unicode="(" horiz-adv-x="774" d="M44 132.5q-5 169.5 41.5 345t142 354.5t223.5 328t296 264.5t349 166.5l73 -53q-112 -50 -222.5 -133.5t-205 -185.5t-180 -222.5t-151 -243.5t-114.5 -248t-73.5 -237.5t-25 -211.5t27.5 -169l-112 -53q-64 129 -69 298.5z" />
<glyph unicode=")" horiz-adv-x="962" d="M-215 -113q100 44 199 115.5t186 159t168 189.5t146.5 211t119.5 220t89.5 219t54.5 206t16.5 183.5t-27.5 147.5l113 53q64 -129 69 -298.5t-41.5 -345t-142 -354.5t-223.5 -328t-296 -264.5t-349 -166.5z" />
<glyph unicode="*" horiz-adv-x="983" d="M172 1012l72 125h248l-123 217l108 59l121 -213l125 215h145l-161 -278h319l-72 -125h-247l122 -215l-108 -62l-123 215l-123 -213h-143l157 275h-317z" />
<glyph unicode="+" horiz-adv-x="1116" d="M133 467l82 143h320l174 299h192l-174 -299h324l-82 -143h-324l-194 -338h-195l195 338h-318z" />
<glyph unicode="," horiz-adv-x="258" d="M29 -152l4 82h12q37 0 76.5 20.5t58.5 49.5q-46 8 -74 35.5t-28 66.5q0 54 32.5 83.5t75.5 29.5q48 0 84.5 -31t36.5 -84q0 -105 -84.5 -178.5t-179.5 -73.5h-14z" />
<glyph unicode="-" horiz-adv-x="1062" d="M133 467l82 143h733l-82 -143h-733z" />
<glyph unicode="." horiz-adv-x="493" d="M53 96q0 50 34 84.5t83 34.5q50 0 84.5 -34.5t34.5 -84.5q0 -49 -34.5 -82.5t-84.5 -33.5t-83.5 33.5t-33.5 82.5z" />
<glyph unicode="/" horiz-adv-x="1167" d="M-94 0l1601 1432h213l-1599 -1432h-215z" />
<glyph unicode="0" horiz-adv-x="890" d="M-11 122q-42 131 64 312l92 158l105 182q89 154 187 216.5t227 62.5q100 0 167.5 -63t75.5 -160t-53 -212l-215 -372q-102 -177 -264 -245q-137 -57 -253 -15q-102 37 -133 136zM183 148q33 -40 101 -25q79 19 128 97q3 4 6 9l272 469q62 107 32 174q-23 49 -81 43 q-77 -8 -150 -109q-13 -19 -26 -40l-103 -174l-161 -281q-63 -110 -18 -163z" />
<glyph unicode="1" horiz-adv-x="702" d="M-164 0l82 143h176l387 670q-85 -46 -227 -86l-45 133q8 3 43 15t44.5 15.5t41 15t43.5 16.5t40 16.5t42.5 19.5t39 21t42 24.5t39 26.5t41.5 31l82 -187l-422 -731h188l-82 -143h-555z" />
<glyph unicode="2" horiz-adv-x="956" d="M-143 0l80 137q101 23 180 49.5t163.5 69t154 99t140.5 139.5t134 190q62 105 30 170q-23 49 -81 44q-77 -7 -146 -102q-13 -18 -25 -38l-59 -94h-217l80 139q93 164 249 217q132 45 247 -6q104 -45 135 -145q35 -116 -45 -259q-55 -98 -127 -180t-149 -138t-148 -93.5 t-142 -61.5h375l-80 -137h-749z" />
<glyph unicode="3" horiz-adv-x="937" d="M-145 19.5q17 83.5 69 150.5h201q-10 -11 -24 -31.5t-38 -79.5t-24 -114q0 -65 53 -92q64 -33 148 16q79 46 143 156q38 67 50.5 128.5t0.5 104.5t-43.5 68.5t-75.5 25.5l80 137q118 0 187.5 37t119.5 123q30 52 43.5 98t9.5 79t-23 52t-52 19q-43 0 -93 -37.5 t-93 -111.5l-43 -74h-218l56 100q89 154 186.5 216.5t226.5 62.5q83 0 141.5 -42t81 -106t15 -141.5t-46.5 -145.5q-68 -118 -144.5 -174.5t-181.5 -76.5q35 -47 49.5 -105t3.5 -131.5t-53 -146.5q-49 -85 -110.5 -145t-126 -90.5t-121 -43t-115.5 -12.5q-95 0 -157 49.5 t-80.5 121.5t-1.5 155.5z" />
<glyph unicode="4" horiz-adv-x="948" d="M-178 133q166 129 335.5 271.5t292 254.5t221 206t149.5 145l50 51l82 -187l-422 -731h211l-82 -143h-210l-164 -287h-189l164 287h-393zM63 143h279l317 549q-293 -311 -596 -549z" />
<glyph unicode="5" horiz-adv-x="878" d="M-170 -143q-35 103 35 227l47 84h209l-78 -139q-60 -105 -18 -158q33 -40 104 -23q85 20 145 108q8 11 15 24l168 294q28 49 34.5 93.5t-4.5 74.5t-35.5 47.5t-56 17.5t-69.5 -21t-72 -62l-14 14l-90 86l290 500h551l-94 -164h-369l-133 -233q10 2 35 2 q100 0 167.5 -62.5t75.5 -159t-52 -212.5l-146 -258q-96 -169 -258 -223q-135 -44 -253 6q-102 43 -134 137z" />
<glyph unicode="6" horiz-adv-x="917" d="M5 146q-31 102 38 225l47 84l320 563q95 167 245 222q124 46 227 -3q96 -45 118 -149q7 -37 4 -76l-152 -11q16 76 -37 102q-53 25 -126 -14q-70 -36 -114 -114l-40 -72q40 12 90 12q101 0 159 -61t57 -162t-63 -211l-145 -258q-96 -170 -256 -223q-131 -44 -244 6 q-100 44 -128 140zM183 157q34 -41 104 -23q85 21 145 109q7 11 14 23l168 295q24 42 32 81t1 66t-23.5 47.5t-42 25t-54 -2t-61 -33t-60.5 -67.5l-127 -223l-78 -140q-61 -106 -18 -158z" />
<glyph unicode="7" horiz-adv-x="788" d="M-164 -287q197 331 420 627t418 518h-537l94 166h594l93 -150q-20 -20 -54.5 -56.5t-139 -156.5t-204.5 -247t-233 -319t-242 -382h-209z" />
<glyph unicode="8" horiz-adv-x="897" d="M14 124q-39 130 64 310l41 72q117 206 307 242q-12 34 -12 75q0 91 63 197q72 127 152.5 178t187.5 51q87 0 142 -56t55 -146q0 -87 -56 -185q-92 -154 -229 -205q43 -60 43.5 -136t-49.5 -171l-59 -104q-102 -178 -266 -246q-136 -57 -251 -14q-102 38 -133 138z M207 148q33 -40 101 -25q79 19 128 97q3 4 6 9l117 201q62 107 32 174q-23 49 -81 43q-77 -8 -150 -109q-13 -19 -26 -40l-82 -140l-27 -47q-63 -110 -18 -163zM591 773q27 -32 75 -17q46 15 77 69l84 148q45 77 17 122q-22 35 -69 20q-55 -20 -99 -97l-78 -137 q-39 -68 -7 -108z" />
<glyph unicode="9" horiz-adv-x="915" d="M-106 12l151 11q-16 -76 37 -102q53 -25 126 14q70 36 114 114l40 72q-44 -12 -90 -12q-66 0 -114 36.5t-68 95.5t-8.5 139.5t57.5 162.5l146 258q96 169 255 223q130 44 243 -6q100 -44 128 -140q29 -103 -39 -225l-47 -84l-319 -563q-94 -166 -247 -222 q-127 -46 -235 2q-99 43 -124 144q-9 38 -6 82zM235 290q7 -28 24.5 -46.5t46 -18.5t59 10.5t65 39.5t62.5 71l126 223l78 140q61 106 18 158q-34 41 -104 23q-85 -21 -145 -109q-7 -11 -14 -23l-168 -295q-31 -54 -43 -99.5t-5 -73.5z" />
<glyph unicode=":" horiz-adv-x="765" d="M29 96q0 50 33.5 84.5t82.5 34.5t84 -34.5t35 -84.5q0 -49 -34.5 -82.5t-84.5 -33.5q-49 0 -82.5 33t-33.5 83zM438 731q0 50 34 84.5t83 34.5t84 -35t35 -84t-34.5 -83t-84.5 -34q-49 0 -83 34t-34 83z" />
<glyph unicode=";" horiz-adv-x="727" d="M29 -152l4 82h12q37 0 76.5 20.5t58.5 49.5q-46 8 -74 35.5t-28 66.5q0 54 32.5 83.5t75.5 29.5q48 0 84.5 -31t36.5 -84q0 -105 -84.5 -178.5t-179.5 -73.5h-14zM397 668q0 50 34 84t83 34q50 0 84.5 -34.5t34.5 -83.5t-34.5 -83t-84.5 -34t-83.5 33.5t-33.5 83.5z" />
<glyph unicode="&#x3c;" horiz-adv-x="1095" d="M18 436l72 127l1071 481l-114 -204l-805 -383l389 -334l-82 -143z" />
<glyph unicode="=" horiz-adv-x="1003" d="M123 313l82 144h549l-82 -144h-549zM272 569l82 144h549l-82 -144h-549z" />
<glyph unicode="&#x3e;" horiz-adv-x="1095" d="M-66 -20l115 204l805 383l-389 334l82 143l530 -456l-71 -127z" />
<glyph unicode="?" horiz-adv-x="1001" d="M109 96q0 50 33.5 84.5t82.5 34.5t84 -34.5t35 -84.5q0 -49 -34.5 -82.5t-84.5 -33.5q-49 0 -82.5 33t-33.5 83zM242 311l202 353l17 30q398 185 483 434q42 123 -7 188q-40 55 -117 34q-101 -26 -191 -163q-44 -67 -80 -155l-164 29q57 228 222 358q133 104 277 103 q135 -1 209 -96q58 -75 58 -193q0 -161 -150.5 -331t-384.5 -306h2l-161 -285h-215z" />
<glyph unicode="@" horiz-adv-x="1775" d="M-75 464q33 253 197 467q177 231 441 325q218 77 461 44q133 -18 236.5 -67t167 -118t100 -155t42 -178.5t-13.5 -188.5t-60 -184.5t-103 -167t-138 -136.5t-170 -91.5t-194 -33.5q-80 0 -128 38t-56 101q-169 -139 -295 -139q-128 0 -171 92t25 211l299 516 q65 112 169.5 178.5t195.5 66.5q98 0 164 -71t59 -144h121l-344 -602q-33 -63 -24 -89.5t48 -26.5q85 0 165.5 41.5t142 111t105.5 159.5t62.5 186t4.5 192.5t-58.5 177t-137 141.5t-222.5 84q-277 49 -529 -109q-196 -123 -317 -334q-128 -221 -117 -440q12 -241 193 -383 q114 -90 286 -128q92 -21 183.5 -23t171.5 11t161.5 42.5t149.5 65t140.5 87t129.5 99.5t121 111t110.5 113t102.5 114l15 16q22 -9 45.5 -30.5t33.5 -42.5q-71 -85 -143.5 -160.5t-153.5 -147.5t-164.5 -131.5t-172.5 -109.5t-182.5 -83.5t-189.5 -52.5t-198 -18t-203 23 q-325 69 -472 304q-126 201 -92 467zM427 137.5q9 -26.5 48 -26.5q69 0 160 76t184 223l166 290q51 94 9 144q-34 40 -101 23q-82 -20 -140 -113q-2 -5 -5 -9l-297 -518q-33 -63 -24 -89.5z" />
<glyph unicode="A" horiz-adv-x="2035" d="M40 434q-2 24 -3 48q0 74 20 157q26 109 88 215q57 98 139 169t170.5 107.5t183.5 41.5q15 1 29 1q79 0 149 -23q84 -27 154.5 -90.5t110.5 -156.5l-170 -65q-29 72 -83 116t-121 52q-20 2 -40 3q-47 -1 -97 -15q-70 -20 -141 -80.5t-124 -151.5q-61 -106 -77 -214 q-5 -37 -6 -71q0 -66 20 -122q30 -85 111 -139q80 -53 196 -52h4q87 1 181 50.5t181 132t177 188t176.5 220t172.5 226.5t171.5 208.5t166.5 165.5t164 97q45 15 87 15q36 0 71 -11l-422 -1229q-14 -42 -17.5 -64.5t2.5 -31t22 -8.5q29 0 124.5 87t210.5 220l15 16 q22 -9 46 -30.5t34 -42.5q-53 -62 -88 -101.5t-84 -90.5t-86.5 -82.5t-80.5 -61t-83 -43.5t-78 -14q-74 0 -110 44q-34 42 -34 105v5q2 66 31 149l76 217h-287q-88 -117 -166 -202.5t-171.5 -162t-194.5 -116t-207 -39.5q-109 0 -201.5 35t-158 95t-105.5 144t-48 180z M1368 602h246l213 604q-54 -55 -117 -134t-108.5 -142t-119.5 -168t-114 -160z" />
<glyph unicode="B" horiz-adv-x="1554" d="M43 492q1 95 29.5 182t86.5 164t140 129l86 -109q-101 -66 -151 -178q-39 -89 -39 -185q0 -25 3 -51q13 -124 85 -225q41 49 82 121l573 991q69 121 164.5 185.5t187.5 64.5q176 0 256 -114q46 -67 46 -151q0 -40 -10 -83q-34 -142 -160 -243q-75 -60 -171 -93 q75 -50 121 -122.5t60 -154.5q8 -43 9 -88q0 -40 -7 -82q-13 -89 -50.5 -173t-101.5 -160t-144.5 -132.5t-186.5 -90t-222 -33.5q-135 0 -250 36t-194.5 96.5t-136 142t-81.5 171.5q-24 87 -24 178v7zM418 98q130 -73 307 -73q148 0 268.5 76.5t174.5 190t61 231.5 q1 10 1 20q0 107 -70 195q-76 96 -220 126l-57 6l-359 -620q-57 -95 -106 -152zM954 995q168 3 264 48t156 157q31 59 31 110q0 32 -12 60q-25 58 -82 62h-9q-73 0 -144 -94q-17 -22 -32 -48z" />
<glyph unicode="C" horiz-adv-x="1101" d="M39 1059q0 112 54.5 215t164.5 182l70 -125q-68 -53 -103 -123t-35 -145q0 -92 49.5 -173.5t141.5 -129.5l332 571q69 121 164.5 185.5t187.5 64.5q121 0 202 -87.5t81 -229.5q0 -135 -86 -287q-81 -141 -194 -235.5t-227 -134.5t-233 -40q-50 0 -121 11l-59 -105 q-46 -77 -57 -147q-4 -25 -3 -48q0 -39 12 -68q20 -46 60 -72.5t95 -26.5q276 0 552 319l15 16q24 -6 47.5 -27.5t32.5 -45.5q-75 -87 -141 -149.5t-153 -122t-189 -90.5t-216 -31q-109 0 -185 49q-74 49 -104 126q-21 55 -21 120q0 27 3 55q12 98 68 194l63 111 q-127 66 -197.5 180t-70.5 244zM565 709h43q118 0 228.5 59t184 145.5t117.5 181.5t44 171q0 61 -29.5 96t-87.5 35q-47 0 -97.5 -39t-95.5 -117z" />
<glyph unicode="D" horiz-adv-x="1918" d="M27 8q0 94 78.5 165t220.5 71q107 0 235 -62l23 41l616 1065q-5 0 -15.5 1t-15.5 1q-101 0 -190.5 -30t-152 -78.5t-105.5 -112t-59 -129.5q-9 -37 -8 -75q0 -29 5 -57q12 -66 54 -120l-123 -110q-67 60 -95 150q-20 65 -20 132q0 27 3 54q11 96 63.5 193t135 173 t209 124t275.5 48q380 0 568 -229q145 -176 145 -445v-14q-4 -258 -135 -497q-129 -235 -331 -354q-160 -93 -337 -93q-69 0 -130.5 11t-120 35t-94 42.5t-93.5 52.5q-135 -170 -342 -170q-125 0 -194.5 63.5t-69.5 153.5zM213 18q0 -27 26 -45t76 -18q62 0 99 20.5t69 65.5 q-93 39 -178 39q-43 0 -67.5 -18.5t-24.5 -43.5zM721 94q91 -53 171.5 -81.5t174.5 -28.5q97 0 190 46t166.5 122.5t130 178t88.5 210t36 219.5v26q0 96 -24 180q-26 96 -94 172.5t-171 114.5z" />
<glyph unicode="E" horiz-adv-x="1398" d="M31 307q0 121 39.5 231t108.5 194.5t160 146.5t198 93q95 27 192 27h25q-41 80 -41 166q0 162 102 269.5t258 107.5q146 0 246 -82.5t100 -224.5q0 -47 -13 -91t-31.5 -73t-36.5 -51t-31 -32l-13 -11l-114 121q1 0 8.5 5.5t18.5 17.5t21 28t17.5 41.5t7.5 54.5 q0 94 -75 137q-40 22 -82 22q-32 0 -66 -12q-88 -31 -122 -126q-17 -48 -17 -107q0 -50 16.5 -92.5t42 -69t43 -40.5t31.5 -21q0 -2 4 -2l-63 -111q-28 9 -68 29q-67 24 -137 26h-13q-64 0 -123 -18q-66 -20 -128 -54.5t-113.5 -87t-90 -114.5t-60 -138t-21.5 -155 q0 -114 61.5 -203.5t155 -134.5t197.5 -45q87 0 167 37t133 98.5t83 133.5q23 57 23 117q0 16 -2 32q-8 78 -56 139l125 88q64 -76 86 -168q12 -51 13 -100q-1 -40 -9 -80q-18 -88 -69.5 -172t-126 -147t-175 -101t-207.5 -38q-161 0 -291.5 63.5t-209 188t-78.5 288.5z" />
<glyph unicode="F" horiz-adv-x="1550" d="M29 252q0 128 68.5 235.5t181 168.5t239.5 61v-162q-130 0 -222.5 -84.5t-92.5 -210.5q0 -117 91 -192.5t222 -75.5q123 0 241 72.5t204 222.5l215 375h-203l55 102h205l317 551q-33 -14 -70.5 -22.5t-81.5 -10.5q-45 -4 -76 -4h-23q-26 0 -64 1q-56 1 -80 1 q-95 0 -171 -10.5t-140 -34.5t-99.5 -67t-35.5 -103v-14h-183q-2 12 -2 36q0 76 32 137t84.5 100t122 65.5t141 37.5t145.5 11h89q36 0 60 -0.5t36 0.5q26 0 87 2.5t95.5 9.5t85 18t93 29t84.5 43l111 -186h-2l-340 -590h176l-55 -102h-180l-240 -416q-65 -113 -144 -197.5 t-161 -134.5t-163 -74t-163 -24q-135 0 -247.5 58.5t-177 159t-64.5 218.5z" />
<glyph unicode="G" horiz-adv-x="1359" d="M45 1059q0 112 54.5 215t164.5 182l70 -125q-67 -53 -102 -123t-35 -145q0 -92 49.5 -173.5t140.5 -129.5l332 571q69 121 164.5 185.5t187.5 64.5q224 0 308 -142q42 -71 42 -162q0 -66 -22 -142q-54 -184 -208 -333q-194 -186 -453 -226q-61 -9 -124 -9q-48 0 -120 11 l-60 -105q-81 -141 -81 -235q0 -14 1 -28q15 -99 125 -99q117 0 216.5 89t191.5 251l22 36h213l-270 -462q123 53 240.5 150.5t253.5 254.5l14 16q22 -9 46 -30.5t34 -42.5q-332 -384 -672 -492l-164 -280q-44 -75 -107 -121.5t-125 -55.5q-25 -4 -49 -4q-34 0 -65 8 q-54 13 -87.5 55.5t-33.5 102.5q0 223 467 365l55 96q-108 -67 -231 -67q-73 0 -128 22.5t-85.5 61.5t-44.5 92q-9 37 -9 78q0 17 1 34q6 61 28.5 126.5t59.5 129.5l63 111q-127 66 -197.5 180t-70.5 244zM309 -375q0 -28 19.5 -40.5t48 0t49.5 50.5l96 172 q-213 -82 -213 -182zM571 709h43q239 0 418 157q128 113 176 258q20 62 20 112q0 56 -26 98q-40 63 -131 63q-47 0 -97 -39t-95 -117z" />
<glyph unicode="H" horiz-adv-x="2271" d="M21 430q10 128 81 250q40 69 91.5 120.5t97 76t85 39.5t62.5 18l23 2l39 -158l-16.5 -5.5t-41 -18t-58.5 -33.5t-62 -53.5t-58 -75.5q-57 -99 -57 -194q0 -60 22 -118q47 -123 173 -191q100 -53 214 -53q61 0 126 15q243 58 439 312q53 70 101 153l432 750 q-72 -37 -189 -71t-208 -56t-176 -65t-119 -101q-30 -51 -32 -95v-11q0 -37 15 -61q17 -28 38.5 -48.5t40.5 -29.5l18 -9l-80 -137q-57 22 -105.5 63.5t-82.5 99.5q-32 54 -32 128v11q2 80 52 165q41 71 110 121t147 75t177 52t192 51t199 73.5t193 118.5l108 -186 l-342 -590h320l303 522q60 103 130.5 168.5t136.5 87.5q59 20 115 19q6 1 13 1q63 -2 112.5 -29t84 -65.5t45.5 -81.5l-141 -77q-23 51 -59 73q-25 15 -54 15q-12 -1 -26 -3q-42 -10 -90 -54t-91 -119l-704 -1221h-215l380 662h-319l-137 -240q-217 -376 -521 -511 q-148 -65 -294 -65q-91 0 -181 25q-193 54 -312 202q-114 144 -114 318q0 19 1 39z" />
<glyph unicode="I" horiz-adv-x="1028" d="M12 -512l1024 1778q-72 -37 -189 -71t-208 -56t-176 -65t-119 -101q-30 -51 -32 -95v-11q0 -37 15 -61q17 -28 38.5 -48.5t40.5 -29.5l18 -9l-80 -137q-57 22 -105.5 63.5t-82.5 99.5q-32 54 -32 128v11q2 80 52 165q41 71 110 121t147 75t177 52t192 51t199 73.5 t193 118.5l109 -186l-1072 -1866h-219z" />
<glyph unicode="J" horiz-adv-x="1392" d="M51 428q0 93 37 174t80 133t143 114.5t156.5 91t190.5 90.5l102 48q28 13 134.5 63t148 70t132.5 67t144 80.5t122 82.5t124 98l121 -139l-803 -1376q123 53 241 150.5t254 254.5l15 16q22 -9 46 -30.5t34 -42.5q-329 -384 -674 -492l-162 -280q-44 -75 -107 -121.5 t-124 -55.5q-26 -4 -50 -4q-34 0 -66 8q-53 13 -86.5 55.5t-33.5 102.5q0 225 469 365l735 1280q-32 -25 -66.5 -48.5t-79 -48.5t-72.5 -41t-86 -43t-77.5 -36t-88 -40t-79.5 -36q-36 -16 -89 -39t-89.5 -38.5t-84.5 -37.5t-81.5 -40t-72.5 -42t-65 -46.5t-52 -52 t-41.5 -59.5t-25 -67t-9.5 -78q0 -96 54 -156.5t137 -60.5q53 0 105.5 29t90.5 84l98 -96q-43 -76 -125.5 -120t-175.5 -44q-159 0 -253.5 103t-94.5 251zM342 -375q0 -28 19.5 -40.5t48 0t49.5 50.5l98 172q-215 -82 -215 -182z" />
<glyph unicode="K" horiz-adv-x="2172" d="M38 430q10 128 81 250q40 69 91.5 120.5t96.5 76t84.5 39.5t62.5 18l23 2l39 -158l-16.5 -5.5t-41 -18t-58 -33.5t-61.5 -53.5t-58 -75.5q-57 -98 -57 -193q0 -59 22 -118q46 -124 172 -191q100 -54 214 -53q60 0 124 14q243 57 439 310q54 70 103 155l433 750 q-72 -37 -189.5 -71t-208 -56t-176 -65t-119.5 -101q-30 -51 -32 -95v-11q0 -37 15 -61q17 -28 38.5 -48.5t40.5 -29.5l18 -9l-80 -137q-57 22 -105.5 63.5t-82.5 99.5q-32 54 -32 128v11q2 80 52 165q41 71 110 121t147 75t177 52t192 51t199 73.5t193 118.5l109 -186 l-318 -551q34 -8 67 -8q201 0 365 282l87 150q51 89 110.5 150.5t116 89t113.5 35.5q21 3 40 3q34 0 65 -9q48 -14 88 -38.5t66.5 -59t36.5 -71.5l-141 -78q-23 51 -59 73q-26 15 -55 16q-13 0 -25 -3q-42 -9 -89.5 -53.5t-90.5 -120.5l-88 -155q-42 -75 -77.5 -125 t-88 -101t-120 -78.5t-151.5 -31.5q80 -81 80 -192q0 -114 -84 -261l-315 -547q-17 -27 -23 -63q-2 -12 -2 -24q0 -25 8 -49q12 -36 46 -52l-91 -156q-64 32 -102 84q-38 51 -46 110q-3 24 -3 48q-1 36 7 73q12 62 46 119l316 547q60 103 60 186q0 123 -132 199l-156 -270 q-217 -376 -521 -511q-148 -65 -294 -65q-91 0 -181 25q-193 54 -311 202q-114 144 -114 318q0 19 1 39z" />
<glyph unicode="L" horiz-adv-x="1568" d="M-61 174q0 108 76.5 188t213.5 80q92 0 172 -38.5t160 -110.5q6 8 16.5 26t12.5 21l170 295q-128 65 -199.5 179t-71.5 245q0 112 55 215t165 182l69 -125q-67 -53 -102 -123t-35 -145q0 -93 49 -174t141 -129l332 571q69 121 165 185.5t188 64.5q121 0 201.5 -87.5 t80.5 -229.5q0 -135 -86 -287q-81 -141 -193.5 -235.5t-226.5 -134.5t-233 -40q-49 0 -121 11l-188 -328q-3 -6 -58 -88q13 -13 36.5 -39t43.5 -47t39 -39q90 -91 142 -142t115.5 -106.5t107.5 -81.5t93 -43.5t97 -17.5q176 0 295 116l104 -110q-5 -7 -15 -19t-46 -42 t-78.5 -52.5t-113.5 -41.5t-150 -19q-55 0 -111.5 15.5t-105 38.5t-104 62.5t-98 75.5t-97 90t-91 93t-91 97t-86.5 91q-160 -133 -338 -133q-144 0 -222.5 79t-78.5 187zM96 172q0 -42 32 -71t91 -29q131 0 232 90q-137 117 -242 117q-51 0 -82 -32t-31 -75zM1016 709h43 q118 0 228.5 59t183.5 145.5t117 181.5t44 171q0 61 -29 96t-87 35q-47 0 -97.5 -39t-95.5 -117z" />
<glyph unicode="M" horiz-adv-x="1914" d="M16 884q2 80 52 165q36 62 91 106.5t121.5 72t142 48t160 42.5t166.5 47.5t171.5 70t164.5 104.5l109 -186l-57 -101q192 242 366 242q57 0 99 -33.5t52 -91.5q2 -12 2 -25q0 -48 -28 -108q202 258 381 258q61 0 103 -36q44 -36 50 -98q1 -8 0 -16q0 -56 -38 -128 l-789 -1367q-17 -27 -23 -63q-2 -12 -2 -24q0 -25 8 -49q12 -36 46 -52l-90 -156q-64 32 -102 84q-38 50 -46 110q-3 24 -3 49q-1 36 7 73q12 62 46 119l733 1273q28 48 28 78q0 17 -9 28q-10 12 -29 12q-32 0 -87 -34q-159 -102 -385 -419l-10 -13l-2 -2l-495 -864h-218 l701 1214q28 48 28 78q0 18 -10 29q-10 12 -28 12q-32 0 -89 -37q-157 -101 -380 -411l-508 -885h-219l729 1266q-72 -37 -189 -71t-207 -56t-175 -65t-119 -101q-30 -51 -32 -95v-11q0 -37 15 -61q17 -28 38.5 -48.5t39.5 -29.5l18 -9l-79 -137q-57 22 -105.5 63.5 t-82.5 99.5q-32 54 -32 128v11z" />
<glyph unicode="N" horiz-adv-x="2267" d="M41 564q12 153 94 296q58 101 146 174.5t184 110.5q95 37 199 42q15 1 31 1q87 0 163 -24q90 -28 162.5 -95.5t109.5 -165.5l-149 -78q-31 75 -93 121q-64 46 -140 54q-24 3 -47 2q-53 0 -109 -13q-80 -19 -152 -73.5t-118 -133.5q-79 -136 -79 -262q0 -53 14 -105 q38 -139 159 -212q92 -55 200 -55q58 0 121 16q234 57 436 312q69 87 130 194l462 805h213l-155 -1020l481 831q60 103 129 168.5t132 87.5q57 20 111 19q6 1 12 1q60 -2 107.5 -29t80.5 -65t44 -82l-141 -77q-23 51 -59 73q-25 15 -53 15q-11 -1 -25 -3q-42 -10 -90.5 -54 t-91.5 -119l-705 -1221h-215l154 1014l-197 -344q-266 -462 -590 -630q-163 -84 -317 -84q-81 0 -159 23q-180 52 -288 207q-104 148 -104 331q0 23 2 47z" />
<glyph unicode="O" horiz-adv-x="1159" d="M61 28q-25 56 -25 122q0 106 66 238q12 23 25 46l340 590h104q-3 26 -3 51q0 127 77 260q114 199 292 257q64 21 125 21q79 0 152 -35q115 -54 160 -167q22 -57 22 -118q0 -105 -65 -221q-1 -1 -2 -3l-164 -285q179 32 344 181l60 -117q-111 -102 -236.5 -152.5 t-249.5 -52.5l-227 -397q-130 -225 -324 -319q-108 -52 -206 -52q-48 0 -94 12q-123 34 -171 141zM243 89q34 -51 108 -50h19q103 9 193 97q42 40 72 93l254 443q-195 62 -279 223l-336 -584q-51 -89 -51 -152q0 -40 20 -70zM752 1042q4 -96 59 -160.5t147 -90.5l207 358 q43 76 43 141q0 38 -14 72q-29 69 -100 86q-19 4 -38 4l-144 -63q-57 -50 -101 -132q-59 -112 -59 -203v-12z" />
<glyph unicode="P" horiz-adv-x="1355" d="M29 0l829 1434h213l-383 -666q52 -59 130 -84q52 -17 107 -17q27 1 55 5q84 12 170 75t146 168q97 167 97 313q0 68 -21 130q-47 140 -183 213q-99 53 -210 53q-48 0 -98 -10q-189 -39 -314 -205q-24 -33 -45 -70q-34 -60 -58 -122.5t-31 -94.5l-7 -32l-145 22 q2 18 6.5 48t30 111t63.5 148q138 239 373 318q103 35 208 35q103 0 207 -34q190 -63 302 -213q105 -141 105 -312q0 -50 -9 -104q-22 -127 -97 -257q-69 -119 -160.5 -196t-183.5 -104q-75 -22 -150 -22q-18 0 -36 2q-93 6 -172 44t-135 100l-389 -676h-215z" />
<glyph unicode="Q" horiz-adv-x="1513" d="M47 125q0 88 76.5 151.5t214.5 63.5q149 0 352 -156q134 81 254.5 208.5t204.5 271.5q145 249 145 439q0 50 -10 95q-31 147 -155 210q-71 36 -152 36q-62 0 -131 -21q-179 -56 -309 -232q-27 -37 -50 -77q-60 -104 -88 -194q-26 -82 -26 -140q0 -5 1 -10q2 -62 26 -109 t59 -73.5t80 -38.5l-29 -141q-87 8 -153 45t-103.5 94t-55.5 130q-15 59 -15 121q0 15 1 30q4 78 27.5 158t64.5 151q169 292 417 409q137 64 272 64q72 0 143 -18q180 -46 284 -195q95 -137 95 -317q0 -60 -10 -124q-29 -182 -142 -378q-90 -155 -219 -291t-280 -228 q24 -22 79 -72.5t82 -74.5t77.5 -67.5t81.5 -65.5t77.5 -52t82 -44.5t78 -25.5t81.5 -11q175 0 294 116l105 -110q-5 -7 -15 -19t-46.5 -42t-79 -52.5t-113.5 -41.5t-150 -19q-62 0 -124 15.5t-123.5 49t-112.5 66.5t-114 88t-103.5 92.5t-106 101t-98.5 93.5 q-179 -76 -340 -76q-142 0 -221.5 64.5t-79.5 152.5zM207 135q0 -27 31.5 -45t89.5 -18q98 0 207 39q-125 86 -218 86q-52 0 -81 -18.5t-29 -43.5z" />
<glyph unicode="R" horiz-adv-x="1359" d="M29 0l798 1382h213l-313 -542q96 -46 186 -46q25 0 51 4q114 17 205.5 90.5t147.5 188.5q43 93 43 172q0 37 -10 69q-30 104 -123 167t-215 63q-74 0 -138 -20.5t-106 -53.5t-75.5 -73t-52 -80t-30.5 -73t-16 -54l-4 -20l-180 28q2 11 6 30t22.5 74.5t44 105.5t74.5 111 t108 105.5t150 74.5t197 30q291 0 434 -171q104 -123 104 -297q0 -15 -1 -31q-9 -187 -125 -338q-129 -169 -332 -213q-59 -12 -121 -13q78 -82 78 -193q0 -115 -84 -260l-316 -547q-17 -27 -23 -63q-2 -12 -2 -24q0 -25 8 -49q12 -36 46 -52l-90 -156q-84 42 -122 118 q-31 62 -31 127q-1 15 1 30q8 82 53 159l316 547q59 105 59 187q0 33 -10 63q-34 103 -176 162l-16 6l-418 -725h-215z" />
<glyph unicode="S" horiz-adv-x="1802" d="M20 109l64 79q96 -65 210 -65q44 0 91 10q-30 77 -35 163q-1 19 -1 39q0 65 13 127q17 80 59.5 154t103.5 128.5t149.5 87t191.5 32.5q166 0 281 -112l301 295q11 161 35 278t68.5 205t115 132t168.5 44q60 0 104 -23.5t63 -65.5q17 -37 17 -82v-12q-2 -52 -36.5 -115 t-96.5 -122l-246 -242q-8 -133 -8 -354q0 -188 -44.5 -351t-128.5 -287t-215.5 -195.5t-295.5 -71.5q-172 0 -298 62.5t-201 168.5q-67 -18 -133 -18q-49 0 -97 10q-113 23 -199 101zM525 338q2 -74 28 -139q79 49 139 106l357 350q-80 64 -183 64q-81 0 -148 -32.5 t-108.5 -86.5t-63.5 -121q-21 -62 -21 -129v-12zM621 88q113 -133 327 -133q158 0 270.5 97t166 260.5t53.5 377.5v158l-209 -207q39 -77 45 -161q1 -13 1 -26q0 -70 -27 -137q-32 -80 -101 -137l-88 90q66 63 83 139q6 28 6 54q0 45 -18 84l-325 -320q-90 -87 -184 -139z M1659 1255l86 84q104 99 104 160q0 4 -1 9q-6 35 -46 36q-51 0 -86 -70t-57 -219z" />
<glyph unicode="T" horiz-adv-x="1337" d="M36 150q2 65 38 135t102 129l115 -111q-71 -71 -78 -147q-1 -9 -1 -16q0 -64 48 -108q54 -48 152 -48q202 0 376 303l607 1059q-151 -80 -330 -80q-28 0 -119 4t-115 4q-132 0 -219.5 -67.5t-87.5 -155.5q0 -109 103 -166l-105 -131q-84 44 -127 117.5t-43 158.5 q0 178 147 293t378 115q22 0 105.5 -1t107.5 -1q101 0 205 26t158 52l54 26l111 -186h-2l-639 -1108q-249 -430 -590 -430q-78 0 -146 27.5t-113.5 73t-69.5 107.5q-22 56 -22 114v12z" />
<glyph unicode="U" horiz-adv-x="1585" d="M39 872q0 90 37.5 159.5t105 117t151 84t186.5 69t200 63.5t203.5 76.5t185.5 98.5l109 -186l-539 -932q-70 -121 -71 -195q0 -29 12 -51q21 -41 72 -42q18 0 40 6q104 24 214 145q46 49 85 110l623 1080h213l-717 -1248q-26 -49 -26 -76q1 -7 3 -13q10 -26 48 -27 q121 0 397 319l14 16q22 -9 46 -30.5t34 -42.5q-337 -393 -555 -393q-84 0 -133.5 41.5t-52.5 109.5q-83 -71 -169 -109q-85 -38 -155 -38h-2q-68 0 -117 36t-67 100q-8 27 -8 61q0 47 15 107q25 104 97 228l455 791q-60 -30 -150.5 -61.5t-167 -54t-159 -55.5t-140 -67 t-94.5 -85.5t-37 -115.5q0 -29 11.5 -55t28.5 -42.5t33.5 -28.5t27.5 -18l12 -5l-80 -137q-89 35 -154 111.5t-65 178.5z" />
<glyph unicode="V" horiz-adv-x="1431" d="M36 876q6 155 143 275q116 100 306 152q376 103 576 237l121 -139l-267 -924l555 809q69 97 143.5 160t139.5 85q62 21 121 21h5q61 -1 107 -25t78 -60.5t43 -80.5l-141 -77q-38 85 -101 85q-14 0 -30 -4q-85 -24 -188 -169l-869 -1221h-190l379 1325 q-59 -34 -149.5 -67.5t-171 -57t-166 -56.5t-147 -67.5t-101 -88.5t-39.5 -120q0 -71 40 -115.5t96 -52.5q13 -2 26 -2q43 0 93 22q64 28 107 91l98 -96q-43 -76 -125.5 -120t-175.5 -44q-144 0 -235 100q-81 88 -81 208v17z" />
<glyph unicode="W" horiz-adv-x="1916" d="M35 872q0 90 37.5 159.5t105 117t151 84t186.5 69t200 63.5t203.5 76.5t185.5 98.5l108 -186l-606 -1051q-51 -89 -51 -147q0 -17 4 -32q12 -39 49 -39q11 0 25 4q91 25 211 187q33 43 65 95l637 1104h213l-717 -1248q-25 -45 -25 -78q0 -26 15 -44q19 -22 52 -22 q22 0 50 9q101 35 192 170l28 45l565 979q60 103 130.5 168.5t136.5 87.5q59 20 115 19q6 1 13 1q63 -2 112.5 -29t84 -65.5t45.5 -81.5l-141 -77q-23 51 -59 73q-25 15 -54 15q-12 -1 -26 -3q-42 -10 -90 -54t-91 -119l-524 -918q-51 -88 -114 -155.5t-126.5 -105 t-128.5 -57.5q-53 -16 -101 -16q-11 1 -21 1q-58 4 -105 23t-78.5 57.5t-40.5 88.5q-146 -157 -289 -167q-9 -1 -17 -1q-92 0 -145 70q-39 52 -39 123q0 41 13 87q15 52 45 105l545 951q-69 -34 -181 -71.5t-202.5 -67t-178 -69.5t-137 -98t-49.5 -133q0 -29 11.5 -55 t28.5 -42.5t33.5 -28.5t27.5 -18l12 -5l-80 -137q-89 35 -154 111.5t-65 178.5z" />
<glyph unicode="X" horiz-adv-x="1572" d="M129 186l154 47q16 -73 66 -99q23 -12 50 -12q33 0 73 17q72 31 149 117l374 424l70 637q-60 -27 -154.5 -59.5t-172 -56.5t-162.5 -59.5t-143 -71.5t-96 -88.5t-38 -113.5q0 -57 26 -98t68 -57q36 -14 77 -14q6 1 12 1q48 2 97 31.5t83 79.5l98 -96q-43 -76 -125.5 -120 t-175.5 -44q-144 0 -235 100q-81 88 -81 208v17q6 155 143 275q116 100 306 152q374 103 575 237l121 -139l-49 -414l-16 -67l39 59l307 342q57 64 118.5 106.5t118 59.5t110.5 19h9q49 0 91 -16q45 -17 81 -45t58.5 -67t29.5 -84l-153 -47q-12 55 -44 83t-76 28h-2 q-44 0 -101 -34.5t-115 -98.5l-494 -551l-49 -422q-2 -19 -2 -35q0 -76 53 -77q2 0 5 1q77 5 215 137q74 70 137 152l14 16q22 -9 46 -30.5t34 -42.5q-109 -154 -269 -271q-169 -124 -284 -124q-8 0 -16 1q-136 10 -138 210q0 43 6 94l11 94l10 49l-29 -43l-199 -223 q-78 -89 -165 -136q-87 -48 -161 -50h-13q-66 0 -124 23q-64 25 -104 75.5t-49 113.5z" />
<glyph unicode="Y" horiz-adv-x="1519" d="M27 872q0 90 37.5 159.5t105 117t151 84t186.5 69t200 63.5t203.5 76.5t185.5 98.5l108 -186l-538 -932q-69 -120 -69 -193q0 -30 11 -52q21 -43 73 -43q17 0 38 5q104 24 213 144q65 71 117 163l2 -2l587 1029h213l-841 -1448q123 53 241 150.5t254 254.5l15 16 q22 -9 45.5 -30.5t33.5 -42.5q-329 -384 -673 -492l-162 -280q-44 -75 -107 -121.5t-125 -55.5q-25 -4 -49 -4q-34 0 -65 8q-54 13 -87.5 55.5t-33.5 102.5q0 225 469 365l72 123q-78 -52 -154 -74q-54 -15 -100 -15q-18 0 -35 3q-60 8 -100 48t-52 104q-4 20 -4 43 q0 51 19 119q27 98 94 214l455 791q-60 -30 -150.5 -61.5t-167 -54t-159 -55.5t-140 -67t-94.5 -85.5t-37 -115.5q0 -29 11.5 -55t28.5 -42.5t33.5 -28.5t27.5 -18l12 -5l-80 -137q-89 35 -154 111.5t-65 178.5zM469 -375q0 -28 19.5 -40.5t48 0t49.5 50.5l98 172 q-215 -82 -215 -182z" />
<glyph unicode="Z" horiz-adv-x="1269" d="M47 -414q0 225 473 367q10 19 10 37q0 28 -26 48q-35 30 -86 31q-7 0 -15 -1h-4h-2l2 2l-14 127q147 26 297.5 125t264 230.5t185.5 287t72 290.5q0 141 -90 204q-50 34 -112 34q-44 0 -94 -17q-143 -50 -253 -219q-165 -253 -184 -671l-152 -15q-4 61 -4 119 q0 359 164 619q129 205 325 297q121 57 233 57q54 0 106 -13q154 -40 222 -182q44 -92 44 -215q0 -106 -33.5 -222.5t-100.5 -234.5t-159.5 -222.5t-219 -191.5t-269.5 -136l-9 -2q57 -48 66 -121q146 44 279.5 147t291.5 285l15 16q22 -9 46 -30.5t34 -42.5 q-336 -388 -678 -494q-9 -29 -37 -84l-113 -196q-44 -76 -108 -123q-64 -46 -126 -55q-24 -4 -47 -4q-36 0 -70 9q-55 14 -89.5 57t-34.5 103zM219 -375q0 -28 19 -40.5t47.5 0t50.5 50.5l100 172q-217 -82 -217 -182z" />
<glyph unicode="[" horiz-adv-x="1075" d="M-231 -373l1282 2220h462l-96 -168h-250l-1087 -1884h248l-97 -168h-462z" />
<glyph unicode="\" horiz-adv-x="745" d="M90 1432h154l391 -1432h-152z" />
<glyph unicode="]" horiz-adv-x="1075" d="M-231 -373l96 168h250l1087 1884h-248l97 168h462l-1282 -2220h-462z" />
<glyph unicode="^" horiz-adv-x="882" d="M240 1071l567 334l174 -404l-145 -65l-107 256l-422 -254z" />
<glyph unicode="_" horiz-adv-x="815" d="M-82 -256l82 143h815l-82 -143h-815z" />
<glyph unicode="a" d="M-135 139q0 66 41 144l299 516q65 112 169 178.5t195 66.5q99 0 165 -71q60 -64 60 -130q0 -7 -1 -14h120l-344 -602q-26 -49 -26 -76q1 -7 3 -13q10 -26 48 -27q121 0 397 319l15 16q22 -9 45.5 -30.5t33.5 -42.5q-337 -393 -555 -393q-80 0 -128 38t-56 101 q-169 -139 -295 -139q-84 0 -134 44q-52 44 -52 115zM66 138q10 -26 49 -27q69 0 160 76t184 223l166 290q27 51 27 89q0 31 -18 54q-24 29 -66 29q-16 0 -35 -4q-82 -21 -140 -113l-6 -10l-297 -518q-26 -49 -26 -76q0 -7 2 -13z" />
<glyph unicode="b" horiz-adv-x="927" d="M-84 197q0 108 76 237l602 1041h217l-270 -469q70 47 139 47q88 0 140 -54t52 -137q0 -104 -79 -244l-201 -346q82 2 167 42t154 116l15 16q22 -9 46 -30.5t34 -42.5q-78 -92 -206.5 -149.5t-230.5 -57.5q-31 0 -47 2q-76 -99 -172 -149t-190 -50q-106 0 -176 61t-70 167 zM102 201q0 -38 24.5 -60t61.5 -22q43 0 87 26t75 76q-108 68 -135 221l-76 -131q-37 -67 -37 -110zM322 518q0 -125 90 -192l217 372q41 69 41 127q0 42 -22 67.5t-58 25.5q-58 0 -122 -68t-105 -162.5t-41 -169.5z" />
<glyph unicode="c" horiz-adv-x="792" d="M-72 252q6 80 54 164l223 383q68 118 169.5 181.5t229.5 63.5q88 0 147 -46t69 -122q1 -11 1 -23q0 -68 -47 -153l-31 -53h-174l31 53q39 69 39 115q0 27 -13 45q-18 27 -52 27q-17 0 -38 -7q-79 -25 -141 -122q-4 -6 -8 -13l-219 -380q-44 -78 -44 -132v-11 q5 -56 46 -83.5t109 -27.5q108 0 243 89.5t256 229.5l15 16q22 -9 45.5 -30.5t33.5 -42.5q-148 -172 -318 -282.5t-339 -110.5q-93 0 -161 36t-100 96q-27 51 -27 117q0 11 1 23z" />
<glyph unicode="d" d="M-135 139q0 66 41 144l299 516q65 112 169 178.5t195 66.5q63 0 114 -31t81 -79l313 541h213l-721 -1248q-26 -49 -26 -76q1 -7 3 -13q10 -26 48 -27q121 0 397 319l15 16q22 -9 45.5 -30.5t33.5 -42.5q-337 -393 -555 -393q-80 0 -128 38t-56 101q-169 -139 -295 -139 q-84 0 -134 44q-52 44 -52 115zM66 138q10 -26 49 -27q71 0 164 79.5t186 231.5l162 278h-2q27 51 27 89q0 31 -18 54q-24 29 -66 29q-16 0 -35 -4q-82 -21 -140 -113l-6 -10l-297 -518q-26 -49 -26 -76q0 -7 2 -13z" />
<glyph unicode="e" horiz-adv-x="792" d="M-72 252q6 80 54 164l223 383q68 118 169.5 181.5t229.5 63.5q88 0 147 -46t69 -122q1 -11 1 -23q0 -68 -47 -153l-31 -53q-57 -98 -134 -162q-77 -65 -153 -87q-73 -22 -139 -21h-5q-68 1 -124 24l-20 -36q-44 -78 -44 -132v-11q5 -56 46 -83.5t109 -27.5 q108 0 243 89.5t256 229.5l15 16q22 -9 45.5 -30.5t33.5 -42.5q-148 -172 -318 -282.5t-339 -110.5q-93 0 -161 36t-100 96q-27 51 -27 117q0 11 1 23zM250 506q34 -12 70 -14h13q31 0 67 8q44 10 88.5 47.5t80.5 99.5l31 53q39 69 39 115q0 27 -13 45q-18 27 -52 27 q-17 0 -38 -7q-79 -25 -141 -122q-4 -6 -8 -13z" />
<glyph unicode="f" horiz-adv-x="761" d="M-510 -495q5 64 43 130l881 1530q113 196 265 271q72 36 132 36q41 0 76 -16q81 -35 89 -134q1 -11 1 -22q0 -95 -70 -215l-342 -591q-133 -227 -430 -383q359 25 613 319l14 16q22 -9 46 -30.5t34 -42.5q-284 -329 -733 -355q13 -40 13 -80q0 -67 -38 -135l-160 -280 q-98 -172 -222 -208q-28 -8 -54 -8q-58 0 -102 40q-57 51 -57 134q0 12 1 24zM-327 -524q14 -25 50 -1q29 20 56 66l178 314q35 64 35 105q0 36 -27 54h-18l-242 -413q-38 -64 -38 -101q0 -14 6 -24zM33 164q80 35 158.5 105t136 145.5t108.5 163.5l332 575q36 67 36 105 q0 20 -9 32q-10 12 -26 12q-19 0 -49 -19q-58 -38 -110 -128z" />
<glyph unicode="g" horiz-adv-x="950" d="M-272 -414q0 222 467 365l59 100q-114 -71 -203 -71q-84 0 -134 44q-52 44 -52 115q0 66 41 144l299 516q65 112 169 178.5t195 66.5q94 0 159 -66t65 -138h125l-478 -815q123 53 242 151t254 254l14 16q22 -9 46 -30.5t34 -42.5q-329 -384 -674 -492l-161 -280 q-44 -75 -107 -121.5t-124 -55.5q-26 -4 -50 -4q-34 0 -66 8q-53 13 -86.5 55.5t-33.5 102.5zM-100 -375q0 -28 19.5 -40.5t47.5 0t49 50.5l97 172q-213 -83 -213 -182zM66 138q10 -27 49 -27q70 0 162.5 78.5t185.5 228.5l162 282q27 51 27 89q0 31 -18 54q-24 29 -66 29 q-16 0 -35 -4q-82 -21 -140 -113l-6 -10l-297 -518q-26 -49 -26 -76q0 -8 2 -13z" />
<glyph unicode="h" d="M-258 0l850 1475h213l-340 -592q154 161 297 161q61 0 103.5 -36t48.5 -98q1 -8 1 -16q0 -56 -38 -128l-308 -539q-26 -49 -26 -76q1 -7 3 -13q10 -26 48 -27q121 0 397 319l15 16q22 -9 45.5 -30.5t33.5 -42.5q-337 -393 -555 -393q-84 0 -134 44q-52 45 -52 115 q0 66 41 144l277 481q28 48 28 78q0 17 -9 28q-10 12 -29 12q-32 0 -87 -36q-120 -77 -284 -283l-324 -563h-215z" />
<glyph unicode="i" horiz-adv-x="526" d="M-135 139q0 66 41 144l428 741h213l-457 -797q-26 -49 -26 -76q0 -7 2 -13q10 -26 49 -27q121 0 397 319l14 16q22 -9 46 -30.5t34 -42.5q-337 -393 -555 -393q-84 0 -134 44q-52 44 -52 115zM451 1255q0 53 35 89t87 36q53 0 89 -36t36 -89q0 -52 -36 -87t-89 -35 t-87.5 34.5t-34.5 87.5z" />
<glyph unicode="j" horiz-adv-x="575" d="M-647 -414q0 226 471 365l244 428q-48 35 -68 67q67 78 139.5 171.5t116.5 153t106 147t76 106.5h213l-583 -999q122 52 239 149.5t254 255.5l14 16q22 -9 46 -30.5t34 -42.5q-332 -385 -671 -492l-164 -280q-44 -75 -107 -121.5t-125 -55.5q-25 -4 -49 -4q-34 0 -65 8 q-54 13 -87.5 55.5t-33.5 102.5zM-475 -375q0 -28 19.5 -40.5t48 0t49.5 50.5l98 172q-215 -83 -215 -182zM504 1255q0 53 35.5 89t87.5 36q53 0 89 -36t36 -89q0 -52 -36 -87t-89 -35t-88 35t-35 87z" />
<glyph unicode="k" horiz-adv-x="882" d="M-258 0l850 1475h213l-303 -527q45 41 97.5 66.5t100.5 29.5q14 1 27 1q33 -1 63 -7q44 -10 71.5 -39.5t39.5 -70.5q6 -19 5 -42q0 -26 -7 -60q-14 -62 -55 -132l-58 -98q-75 -131 -185 -199q-92 -57 -186 -57q-18 0 -36 2v-88q0 -68 27 -105.5t65 -37.5q121 0 397 319 l15 16q22 -9 46 -30.5t34 -42.5q-337 -393 -555 -393q-123 0 -165 64t-42 210v170l-244 -424h-215zM268 541q22 -65 82 -73q11 -1 22 -1q50 0 100 30q61 37 93 93l103 176q19 33 19 59q0 20 -11 36q-17 23 -50 23q-21 0 -49 -10q-114 -42 -247 -227z" />
<glyph unicode="l" horiz-adv-x="526" d="M-135 139q0 66 41 144l688 1192h213l-717 -1248q-26 -49 -26 -76q0 -7 2 -13q10 -26 49 -27q121 0 397 319l14 16q22 -9 46 -30.5t34 -42.5q-337 -393 -555 -393q-84 0 -134 44q-52 44 -52 115z" />
<glyph unicode="m" horiz-adv-x="1536" d="M-258 0l592 1024h213l-127 -221q191 241 366 241q57 0 99 -34q41 -32 51 -90q2 -12 3 -26q0 -48 -28 -108q202 258 381 258q61 0 103.5 -36t48.5 -98q1 -8 1 -16q0 -56 -38 -128l-307 -539q-26 -50 -26 -76q0 -7 2 -13q9 -26 48 -27q122 0 398 319l14 16q22 -9 46 -30.5 t34 -42.5q-337 -393 -555 -393q-128 0 -171 92q-17 36 -17 75q0 63 42 136l277 481q28 48 28 78q0 17 -9 28q-10 12 -29 12q-32 0 -87 -35q-160 -102 -387 -421l-6 -8l-239 -418h-217l440 764q28 48 28 77q0 17 -10 29t-29 12q-32 0 -88 -36q-158 -103 -382 -416l-248 -430 h-215z" />
<glyph unicode="n" d="M-258 0l592 1024h213l-80 -139q152 159 295 159q61 0 103.5 -36t48.5 -98q1 -8 1 -16q0 -56 -38 -128l-308 -539q-26 -49 -26 -76q1 -7 3 -13q10 -26 48 -27q121 0 397 319l15 16q22 -9 45.5 -30.5t33.5 -42.5q-337 -393 -555 -393q-84 0 -134 44q-52 45 -52 115 q0 66 41 144l277 481q28 48 28 78q0 17 -9 28q-10 12 -29 12q-31 0 -85 -34q-120 -75 -284 -281l-326 -567h-215z" />
<glyph unicode="o" horiz-adv-x="927" d="M-83 200q0 106 75 234l92 158l104 182q89 154 187 216.5t227 62.5q74 0 132 -37q58 -36 88 -96q25 -50 25 -116q1 -12 -1 -24q-6 -80 -53 -162l-201 -346q82 2 166.5 42t154.5 116l15 16q22 -9 46 -30.5t34 -42.5q-78 -92 -206.5 -149.5t-230.5 -57.5h-47 q-117 -147 -276 -185q-47 -12 -90 -12q-79 0 -142 40q-99 61 -99 191zM121 148q24 -29 67 -30q16 0 34 5q79 19 128 97q3 4 6 9l2 4q-20 33 -20 72q0 53 36.5 90t88.5 37h10l156 266q42 71 42 125q0 26 -10 48q-21 45 -69 45q-6 0 -12 -1q-77 -8 -150 -108q-14 -19 -27 -41 l-102 -174l-162 -281q-37 -64 -37 -109q0 -32 19 -54z" />
<glyph unicode="p" horiz-adv-x="923" d="M-516 -451l850 1475h213l-43 -74q53 47 114 71.5t115 24.5t96.5 -24.5t63.5 -67.5q14 -27 14 -66q0 -21 -4 -44q-11 -69 -59 -150l-236 -403q-11 -18 -40 -74t-48 -86q94 33 195.5 112t193.5 187l15 16q24 -6 47.5 -27.5t32.5 -45.5q-58 -67 -109 -119t-118.5 -105 t-134.5 -87.5t-151 -57t-174 -24.5h-12q-55 0 -99 17.5t-68 43t-40 51t-21 42.5l-5 18l121 57q29 -53 72 -53h6q47 4 75 53l322 557q12 22 12 41q0 20 -13 37q-19 26 -55 26q-19 0 -43 -8q-107 -33 -233 -205l-637 -1108h-215z" />
<glyph unicode="q" horiz-adv-x="882" d="M-142 136q5 74 58 165l289 498q65 112 169 178.5t195 66.5q94 0 159 -66t65 -138h118l-413 -709q212 117 370 299l15 16q22 -9 46 -30.5t34 -42.5q-229 -264 -557 -398l-3 -4q11 0 15 -2q61 -26 82 -117q7 -27 7 -54q0 -68 -38 -142l-76 -133q-98 -171 -219 -207 q-29 -9 -56 -9q-55 0 -98 39q-55 50 -55 132q0 13 1 27q6 64 44 130l287 502q-176 -157 -299 -157q-70 0 -108 40q-33 36 -33 97q0 9 1 19zM83 200q-6 -36 21 -48q5 -2 13 -2q33 0 103 44q85 54 200 160l223 389q8 26 8 48q0 42 -33 65q-23 16 -52 16t-62 -15 q-70 -31 -117 -112l-256 -446q-43 -72 -48 -99zM151 -524q10 -25 43 -1q27 21 54 66l94 166q35 64 35 108q0 42 -31 58l-158 -272q-40 -69 -40 -106q0 -11 3 -19z" />
<glyph unicode="r" horiz-adv-x="868" d="M0 446q133 157 360 478l-18 24q-49 59 -49 130q1 15 3 30q12 88 101 168l111 -121q-34 -33 -35 -67q0 -28 23 -56l118 -143q29 -35 45 -63.5t24 -63.5q4 -16 4 -33q1 -20 -5 -42q-10 -40 -37 -87l-213 -373q-26 -49 -26 -76q0 -7 2 -13q10 -26 49 -27q121 0 397 319 l14 16q22 -9 46 -30.5t34 -42.5q-337 -393 -555 -393q-84 0 -134 44q-52 45 -52 115q0 66 41 144l225 391q15 26 15 51q0 35 -27 70l-29 34q-236 -321 -352 -456q-55 35 -80 73z" />
<glyph unicode="s" horiz-adv-x="718" d="M-92 152l133 69q1 -3 3.5 -8.5t11 -19t19 -23.5t28.5 -18.5t38 -8.5q57 0 94 41.5t55 114t29 148.5t26.5 167t37.5 148q-9 -11 -76.5 -102.5t-120 -157.5t-106.5 -129q-55 35 -80 73q67 78 146 179.5t127 167.5t119 165t81 113l160 -86q-57 -118 -87.5 -268t-50.5 -295.5 t-46 -222.5q142 96 256 231l14 16q24 -6 47.5 -27.5t32.5 -45.5q-132 -154 -286 -260.5t-306 -126.5q-1 0 -3 -1t-3 -1q-40 -4 -60 -4q-55 0 -99 17.5t-68 43t-40 51t-21 42.5z" />
<glyph unicode="t" horiz-adv-x="526" d="M-135 139q0 66 41 144l428 741h-195l62 102h192l201 349h213l-201 -349h176l-61 -102h-174l-457 -797q-26 -49 -26 -76q0 -7 2 -13q10 -26 49 -27q121 0 397 319l14 16q22 -9 46 -30.5t34 -42.5q-337 -393 -555 -393q-84 0 -134 44q-52 44 -52 115z" />
<glyph unicode="u" d="M-142 136q6 74 58 165l418 723h213l-416 -725q-43 -72 -48 -99q-6 -36 21 -48q6 -2 14 -2q34 0 104 45q88 56 210 167l379 662h213l-455 -797q-26 -49 -26 -76q1 -7 3 -13q10 -26 48 -27q121 0 397 319l15 16q22 -9 45.5 -30.5t33.5 -42.5q-337 -393 -555 -393 q-99 0 -148 58q-38 44 -38 106q0 19 4 40q-212 -204 -350 -204q-70 0 -108 40q-33 35 -33 97q0 10 1 19z" />
<glyph unicode="v" horiz-adv-x="763" d="M-98 110q-1 9 -1 19q0 66 33 156l297 739h215l-284 -711q-51 -127 -51 -149q0 -4 2 -4h1q8 0 42 48q24 33 67 99l477 717h193l-346 -516q-34 -70 -34 -112q0 -35 24 -51q16 -10 38 -11q34 0 82 25q52 26 93 71l14 16q22 -9 46 -30.5t34 -42.5q-63 -74 -133 -113 q-69 -38 -127 -40q-3 0 -7 -1q-53 1 -96 23q-45 24 -67 67l-111 -166q-48 -72 -116 -115t-127 -45h-8q-54 0 -98 27q-46 28 -52 100z" />
<glyph unicode="w" horiz-adv-x="1355" d="M-120 72q-17 35 -17 74q0 63 43 137l430 741h211l-457 -797q-26 -49 -25 -76q-1 -7 1 -13q10 -26 49 -27q70 0 162.5 79t187.5 230l350 604h211l-457 -797q-26 -49 -26 -76q1 -7 3 -13q10 -26 48 -27q79 0 194 118q-22 31 -22 76q0 53 36.5 90t88.5 37q27 0 51 -12 q171 255 295 604h137q-165 -490 -360 -752q84 0 169.5 40t157.5 118l15 16q22 -9 46 -30.5t34 -42.5q-78 -92 -206.5 -149.5t-230.5 -57.5q-50 0 -75 4q-184 -190 -394 -190q-80 0 -128.5 37.5t-57.5 99.5q-167 -137 -293 -137q-127 0 -171 92z" />
<glyph unicode="x" horiz-adv-x="983" d="M-49 2l440 487l47 338q-4 -6 -68.5 -90.5t-99 -129t-92 -116t-98.5 -118.5q-55 35 -80 73q147 174 346 439q102 159 197 159q70 0 91 -57q11 -29 11 -77q0 -45 -10 -107l-21 -129l306 350h157l-495 -567l-35 -230q-3 -21 -4 -38q0 -69 53 -69q80 0 236 156q66 66 137 154 l14 16q22 -9 46 -30.5t34 -42.5q-78 -91 -134.5 -150.5t-126 -120.5t-133.5 -91.5t-124 -30.5q-123 0 -163 79q-27 53 -27 135q0 41 7 89v8l-268 -289h-143z" />
<glyph unicode="y" horiz-adv-x="950" d="M-272 -414q0 225 469 365l116 201q-192 -172 -315 -172q-70 0 -108 40q-33 36 -33 97q0 9 1 19q5 74 58 165l418 723h213l-416 -725q-43 -72 -48 -99q-6 -36 21 -48q6 -3 14 -3q34 0 106 47q89 59 212 173l377 655h213l-584 -999q123 53 240.5 150.5t253.5 254.5l14 16 q22 -9 46 -30.5t34 -42.5q-332 -384 -672 -492l-163 -280q-44 -75 -107 -121.5t-124 -55.5q-26 -4 -50 -4q-34 0 -66 8q-53 13 -86.5 55.5t-33.5 102.5zM-100 -375q0 -28 19.5 -40.5t47.5 0t49 50.5l99 172q-215 -83 -215 -182z" />
<glyph unicode="z" horiz-adv-x="950" d="M-272 -414q0 224 473 367q10 19 10 37q1 28 -25 48q-35 30 -87 31q-7 0 -15 -1h-4h-2l2 2l-14 127q63 21 129.5 56.5t127 78t117 93t102 100.5t79.5 101q33 51 51 95q16 41 17 75q-1 3 -1 6q-2 37 -24 60q-17 17 -42 17q-106 0 -364 -295q-42 -49 -116 -138 q-45 -54 -62 -73q-55 35 -80 73q32 38 84 103t92.5 114.5t94 111t103 106t105 83.5t114 59.5t116.5 20.5q134 0 171 -111q13 -38 13 -83q0 -89 -51 -205q-86 -197 -270 -354q-121 -105 -265 -170l-8 -2q57 -48 66 -121q146 44 279.5 147t291.5 285l14 16q22 -9 46 -30.5 t34 -42.5q-336 -388 -678 -494q-9 -29 -37 -84l-112 -196q-44 -76 -107.5 -122.5t-125.5 -55.5q-24 -4 -48 -4q-36 0 -70 9q-55 14 -89.5 57t-34.5 103zM-100 -375q0 -28 19 -40.5t47 0t50 50.5l101 172q-217 -82 -217 -182z" />
<glyph unicode="{" horiz-adv-x="966" d="M-66 -138q6 58 35 109l375 668q24 41 32 76t4.5 55.5t-13.5 37t-16.5 21.5t-10.5 7q12 3 33 13t59 32t78 62t68 89l340 578q68 118 177 177.5t222 59.5h196l-96 -168h-94q-87 0 -139 -32t-105 -123l-299 -508q-24 -41 -55.5 -74.5t-59 -52.5t-53.5 -31.5t-40.5 -17 t-18.5 -4.5q5 -4 11 -10t14 -24.5t10 -40t-7.5 -57.5t-33.5 -77l-397 -705q-41 -75 -13 -129.5t103 -54.5h59l-96 -168h-29q-54 0 -102 24.5t-79.5 66.5t-48 92.5t-10.5 108.5z" />
<glyph unicode="|" horiz-adv-x="516" d="M-131 0l827 1434h189l-828 -1434h-188z" />
<glyph unicode="}" horiz-adv-x="1044" d="M-358 -430l96 168h94q86 0 138.5 32.5t105.5 123.5l321 552q24 41 56 75t59.5 52.5t53.5 31.5t40.5 17.5t18.5 4.5q-5 4 -11 10t-14 24.5t-10 40t7.5 57.5t33.5 77l375 659q41 75 12.5 129.5t-103.5 54.5h-59l96 168h29q54 0 102 -24.5t79.5 -66.5t48 -92.5t10.5 -108.5 t-35 -109l-375 -668q-24 -41 -32 -76t-4.5 -55.5t13.5 -36.5t16.5 -21t10.5 -7q-11 -3 -32.5 -13t-59 -32t-77.5 -62.5t-68 -89.5l-340 -578q-68 -118 -177.5 -177.5t-222.5 -59.5h-196z" />
<glyph unicode="&#xa9;" horiz-adv-x="2861" d="M543 715q0 201 98.5 370.5t267.5 268t369 98.5q150 0 286.5 -58t235.5 -157t157 -235.5t58 -286.5q0 -200 -98.5 -369t-268 -267.5t-370.5 -98.5q-200 0 -369 98.5t-267.5 267.5t-98.5 369zM641 715q0 -129 50.5 -247t136 -204t203.5 -137t247 -51q130 0 248 51 t203.5 137t136.5 204t51 247q0 130 -50.5 248.5t-136.5 204.5t-204 137t-248 51q-129 0 -247 -51t-203.5 -137t-136 -204.5t-50.5 -248.5zM930 498q0 76 28 165t78 172t112.5 151t139.5 109.5t152 41.5q67 0 110 -47t43 -123q0 -65 -42 -145.5t-101 -133.5l-64 57 q53 49 86 111.5t33 110.5q0 32 -16.5 51.5t-48.5 19.5q-92 0 -185.5 -92t-150.5 -218.5t-57 -231.5q0 -70 33 -113t100 -43q121 0 274 176l6 8q14 -3 27.5 -15.5t17.5 -25.5q-188 -213 -356 -213q-100 0 -159.5 61.5t-59.5 166.5z" />
<glyph unicode="&#xad;" horiz-adv-x="1062" d="M133 467l82 143h733l-82 -143h-733z" />
<glyph unicode="&#xae;" horiz-adv-x="1200" d="M240 889q0 153 76 283t206 206t283 76t283 -76t206 -206t76 -283t-76 -283t-206 -206t-283 -76t-283 76t-206 206t-76 283zM303 889q0 -136 67.5 -251.5t183 -183t251.5 -67.5t251.5 67.5t183 183t67.5 251.5t-67.5 251.5t-183 183t-251.5 67.5t-251.5 -67.5t-183 -183 t-67.5 -251.5zM506 606l293 506h78l-115 -199q69 -30 127 -4.5t90 90.5q34 70 -4.5 121t-108.5 51q-37 0 -66.5 -14t-45 -34.5t-25.5 -40.5t-13 -34l-3 -14l-68 13q1 8 4.5 21t19 46t37.5 58t64.5 46t95.5 21q84 0 136 -40t58.5 -97t-11.5 -114t-72.5 -97t-124.5 -41 q57 -60 -2 -166l-25 -39q-11 -13 -9.5 -36.5t20.5 -33.5l-33 -57q-47 23 -55 71.5t18 88.5l25 41q61 104 -48 149l-6 2l-151 -264h-80z" />
<glyph unicode="&#x2000;" horiz-adv-x="923" />
<glyph unicode="&#x2001;" horiz-adv-x="1847" />
<glyph unicode="&#x2002;" horiz-adv-x="923" />
<glyph unicode="&#x2003;" horiz-adv-x="1847" />
<glyph unicode="&#x2004;" horiz-adv-x="615" />
<glyph unicode="&#x2005;" horiz-adv-x="461" />
<glyph unicode="&#x2006;" horiz-adv-x="307" />
<glyph unicode="&#x2007;" horiz-adv-x="307" />
<glyph unicode="&#x2008;" horiz-adv-x="230" />
<glyph unicode="&#x2009;" horiz-adv-x="369" />
<glyph unicode="&#x200a;" horiz-adv-x="102" />
<glyph unicode="&#x2010;" horiz-adv-x="1062" d="M133 467l82 143h733l-82 -143h-733z" />
<glyph unicode="&#x2011;" horiz-adv-x="1062" d="M133 467l82 143h733l-82 -143h-733z" />
<glyph unicode="&#x2012;" horiz-adv-x="1062" d="M133 467l82 143h733l-82 -143h-733z" />
<glyph unicode="&#x2013;" horiz-adv-x="1259" d="M133 467l82 143h938l-82 -143h-938z" />
<glyph unicode="&#x2014;" horiz-adv-x="1679" d="M133 467l82 143h1348l-82 -143h-1348z" />
<glyph unicode="&#x2018;" horiz-adv-x="393" d="M33 1223q0 105 84.5 178.5t179.5 73.5h14l-4 -82h-12q-37 0 -76.5 -20.5t-58.5 -49.5q46 -8 74 -35.5t28 -66.5q0 -54 -32.5 -83.5t-75.5 -29.5q-48 0 -84.5 31t-36.5 84z" />
<glyph unicode="&#x2019;" horiz-adv-x="417" d="M205 1096l4 82h12q37 0 76.5 20t58.5 49q-46 8 -74 35.5t-28 67.5q0 54 32.5 83t75.5 29q48 0 84.5 -31t36.5 -83q0 -105 -84.5 -178.5t-179.5 -73.5h-14z" />
<glyph unicode="&#x201c;" horiz-adv-x="464" d="M43 1223q0 105 84.5 178.5t179.5 73.5h15l-5 -82h-12q-37 0 -76.5 -20.5t-58.5 -49.5q46 -8 74 -35.5t28 -66.5q0 -54 -32.5 -83.5t-75.5 -29.5q-48 0 -84.5 31t-36.5 84zM350 1223q0 105 84.5 178.5t179.5 73.5h15l-4 -82h-13q-37 0 -76.5 -20.5t-58.5 -49.5 q46 -8 74.5 -35.5t28.5 -66.5q0 -54 -33 -83.5t-76 -29.5q-48 0 -84.5 31t-36.5 84z" />
<glyph unicode="&#x201d;" horiz-adv-x="724" d="M205 1108l4 82h12q37 0 76.5 20.5t58.5 49.5q-46 8 -74 35.5t-28 66.5q0 54 32.5 83.5t75.5 29.5q48 0 84.5 -31t36.5 -84q0 -105 -84.5 -178.5t-179.5 -73.5h-14zM512 1108l4 82h12q37 0 77 20.5t59 49.5q-46 8 -74.5 35.5t-28.5 66.5q0 54 33 83.5t76 29.5 q48 0 84.5 -31t36.5 -84q0 -70 -41.5 -129.5t-102 -91t-121.5 -31.5h-14z" />
<glyph unicode="&#x2022;" horiz-adv-x="649" d="M137 506q0 78 55.5 133t133.5 55t133 -55t55 -133t-55 -133.5t-133 -55.5t-133.5 55.5t-55.5 133.5z" />
<glyph unicode="&#x202f;" horiz-adv-x="369" />
<glyph unicode="&#x205f;" horiz-adv-x="461" />
<glyph unicode="&#x25fc;" horiz-adv-x="1044" d="M0 0v1044h1044v-1044h-1044z" />
</font>
</defs>
</svg>
